Помогите опознать чипсет камеры

Vadimus2011

Начинающий
Регистрация
25 Янв 2012
Сообщения
158
Баллы
0
Местоположение
Canada
Знающие люди, помогите идентифицировать чипсет регистратора:
IMAG0334.jpg

На самом чипе тоже написано MD8265

Mediainfo:

General
Complete name : E:\DCIM\100DSCIM\PICT0002.AVI
Format : AVI
Format/Info : Audio Video Interleave
File size : 46.1 MiB
Duration : 28s 33ms
Overall bit rate : 13.8 Mbps

Video
ID : 0
Format : JPEG
Codec ID : MJPG
Duration : 28s 32ms
Bit rate : 12.3 Mbps
Width : 1 280 pixels
Height : 720 pixels
Display aspect ratio : 16:9
Frame rate : 23.976 fps
Color space : YUV
Compression mode : Lossy
Bits/(Pixel*Frame) : 0.559
Stream size : 41.2 MiB (90%)

Audio
ID : 1
Format : PCM
Format settings, Endianness : Little
Format settings, Sign : Signed
Codec ID : 1
Duration : 28s 33ms
Bit rate mode : Constant
Bit rate : 128 Kbps
Channel(s) : 1 channel
Sampling rate : 8 000 Hz
Bit depth : 16 bits
Stream size : 438 KiB (1%)
Interleave, duration : 255 ms (6.11 video frames)
 

margarinov

Продвинутый
Регистрация
29 Окт 2011
Сообщения
302
Баллы
0
Местоположение
Yaroslavl
А что конкретно вы хотели бы узнать? Производителя?
 

Vadimus2011

Начинающий
Регистрация
25 Янв 2012
Сообщения
158
Баллы
0
Местоположение
Canada
Я хотел бы найти datasheet на этот чипсет, ну и прошивку по возможности.
 

margarinov

Продвинутый
Регистрация
29 Окт 2011
Сообщения
302
Баллы
0
Местоположение
Yaroslavl
Не могу сказать наверняка,но по-моему никто не поможет...поискал на сайтах китайских производителей.
Есть нечто такое от Syntek MD8265, но пдф-ки на нее нет.Так что,имхо,надо Вам у китайских поставщиков это дело узнавать.
 

SergeyK-kyiv

Новичок
Регистрация
10 Июл 2014
Сообщения
12
Баллы
0
Местоположение
Киев



Live