Цифровой камкодер VDV-21143

staran

Новичок
Регистрация
12 Апр 2011
Сообщения
5
Баллы
0
Местоположение
Brest, By
Сразу попрошу сильно не пинать если не там затеял тему, но вообще это мой первый обзор.
Предмет обсуждения цифровая камера VDV-21143
Посылочку забирал на почте там же ее и открыл в присутствии работника почты.
Ну поехали...
http://cgi.ebay.com/ws/eBayISAPI.dll?ViewItem&_trksid=p4340.l2557&rt=nc&nma=true&item=320677593977&si=VmkoMGAqp0JczzLlsch0SX9iyEo%253D&viewitem=&sspagename=STRK%3AMEWNX%3AIT#ht_5709wt_1139

Вот я весь в ожидании:
arrival at transit office of exchange 01.04.2011 china
departure from outward office of exchange 02.04.2011 china
2011-04-14 20:00:00 Отправка отправления, исход VNO PASTO SKIRSTYMO DEPARTAMENTAS
2011-04-15 14:08:54 Получение отправления в учреждение обмена, вход MINSK PI 2
2011-04-15 15:32:07 Передача отправления таможне, вход MINSK PI 2
2011-04-26 10:46:25 Возвращение отправления с таможни, вход MINSK PI 2
2011-04-26 15:26:59 Отправка отправления в местное учреждение, вход Minsk 50
2011-04-27 09:28:00 Получение отправления в учреждении доставки, вход BREST
2011-04-27 13:16:00 Отправление доставлено BREST
Прохождение внутри страны
Дата Событие
26.04.2011 14:26:59 08. Передано из (200400) Минск - Центр в (224000) Брест ЦОПП
27.04.2011 03:15:38 06. Поступило в участок обработки почты (224000) Брест ЦОПП
27.04.2011 07:13:25 04. Отправлено из (224000) Брест ЦОПП в (224009) Брест-9
27.04.2011 08:28:00 06. Поступило в участок обработки почты (224009) Брест-9
27.04.2011 12:16:00 10. Доставлено, вручено (224009) Брест-9

заветный момент ...
И вот она...


Просил у продавца написать 30$

упаковка мне понравилась, камера внутри тоже была завернута в пупырышки

параметры на коробке соответствуют параметрам на ebay

собственно комплект тоже все что написано только вот флэшка непонятно какого класса

сам девайсик маленький и очень аккуратненький

ну и размеры

Так теперь что мы имеем...
Был не готов к тому что батареи AAA недоглядел, но это мои проблемы.
Были куплены батарейки дешёвенькие, просто других не было в ларьке, камера проработала на них 10 минут
Анти стресс не работает, заявленных 30 fps по моему тоже нету либо медленная флэха, с этим разберемся попозжа. Все режимы присутствуют сенсор у камеры очень шумный фотки на 5 Мп полный отстой, видио адекватно снимает во всех режимах, попозже как найду батарейки выложу на youtube, звук отстой, но как для дома вполне может быть.
Корпус супер, только вот экран вокруг оси не ворочается.
Если есть есть еще вопросы задавайте с радостью отвечу.
 

krokus57

Интересующийся
Регистрация
19 Дек 2010
Сообщения
67
Баллы
0
Местоположение
Москва
Выложите тестовых роликов куда-нить на ютьюб, пожалуйста.
 

Адис

Знаток
Адис
Регистрация
9 Мар 2009
Сообщения
4 503
Симпатии
1
Баллы
120
ждём образцы видео...
 

staran

Новичок
Регистрация
12 Апр 2011
Сообщения
5
Баллы
0
Местоположение
Brest, By

Comrad

Знаток
Comrad
Регистрация
24 Янв 2010
Сообщения
2 784
Баллы
118
Местоположение
UA
Будем ждать образцы видео + их характеристики (кодек, разрешение, кадров/с) и занимаемый объем в минуту.
Также интересует что за кабель видео в комплекте, тюльпан?
 

staran

Новичок
Регистрация
12 Апр 2011
Сообщения
5
Баллы
0
Местоположение
Brest, By
Comrad сказал(а):
Будем ждать образцы видео + их характеристики (кодек, разрешение, кадров/с) и занимаемый объем в минуту.
Также интересует что за кабель видео в комплекте, тюльпан?
Скажу честно минуту было ждать влом, поэтому снимал по 40-30 с. там можно прикинуть, а кабель да аудио-видео тюльпан.
Итак данные:
Все снималось на авто настройках менялись только размер видео и кол во кадров в секунду

320x240x15

Format : AVI
Format/Info : Audio Video Interleave
File size : 11.3 MiB следовательно 1 минута - 16,6 Мб
Duration : 41s 0ms
Overall bit rate : 2 308 Kbps

Video
ID : 0
Format : M-JPEG
Codec ID : MJPG
Duration : 41s 0ms
Bit rate : 2 176 Kbps
Width : 320 pixels
Height : 240 pixels
Display aspect ratio : 4:3
Frame rate : 15.000 fps
Color space : YUV
Chroma subsampling : 4:2:0
Bit depth : 8 bits
Bits/(Pixel*Frame) : 1.889
Stream size : 10.6 MiB (94%)

Audio
ID : 1
Format : PCM
Format settings, Endianness : Little
Format settings, Sign : Signed
Codec ID : 1
Codec ID/Hint : Microsoft
Duration : 41s 0ms
Bit rate mode : Constant
Bit rate : 128 Kbps
Channel(s) : 1 channel
Sampling rate : 8 000 Hz
Bit depth : 16 bits
Stream size : 641 KiB (6%)
Interleave, duration : 200 ms (3.00 video frames)
Interleave, preload duration : 200 ms

320x240x30

Format : AVI
Format/Info : Audio Video Interleave
File size : 22.0 MiB следовательно 1 минута - 32,4 Мб
Duration : 41s 0ms
Overall bit rate : 4 495 Kbps

Video
ID : 0
Format : M-JPEG
Codec ID : MJPG
Duration : 41s 0ms
Bit rate : 4 359 Kbps
Width : 320 pixels
Height : 240 pixels
Display aspect ratio : 4:3
Frame rate : 30.000 fps
Color space : YUV
Chroma subsampling : 4:2:0
Bit depth : 8 bits
Bits/(Pixel*Frame) : 1.892
Stream size : 21.3 MiB (97%)

Audio
ID : 1
Format : PCM
Format settings, Endianness : Little
Format settings, Sign : Signed
Codec ID : 1
Codec ID/Hint : Microsoft
Duration : 41s 0ms
Bit rate mode : Constant
Bit rate : 128 Kbps
Channel(s) : 1 channel
Sampling rate : 8 000 Hz
Bit depth : 16 bits
Stream size : 641 KiB (3%)
Interleave, duration : 200 ms (6.00 video frames)
Interleave, preload duration : 200 ms

640x480x30

Format : AVI
Format/Info : Audio Video Interleave
File size : 27.7 MiB следовательно 1 минута - 55 Мб
Duration : 31s 0ms
Overall bit rate : 7 491 Kbps

Video
ID : 0
Format : M-JPEG
Codec ID : MJPG
Duration : 31s 0ms
Bit rate : 7 356 Kbps
Width : 640 pixels
Height : 480 pixels
Display aspect ratio : 4:3
Frame rate : 30.000 fps
Color space : YUV
Chroma subsampling : 4:2:0
Bit depth : 8 bits
Bits/(Pixel*Frame) : 0.798
Stream size : 27.2 MiB (98%)

Audio
ID : 1
Format : PCM
Format settings, Endianness : Little
Format settings, Sign : Signed
Codec ID : 1
Codec ID/Hint : Microsoft
Duration : 31s 0ms
Bit rate mode : Constant
Bit rate : 128 Kbps
Channel(s) : 1 channel
Sampling rate : 8 000 Hz
Bit depth : 16 bits
Stream size : 484 KiB (2%)
Interleave, duration : 200 ms (6.00 video frames)
Interleave, preload duration : 200 ms

640x480x15

Format : AVI
Format/Info : Audio Video Interleave
File size : 14.2 MiB следовательно 1 минута - 28 Мб
Duration : 31s 0ms
Overall bit rate : 3 854 Kbps

Video
ID : 0
Format : M-JPEG
Codec ID : MJPG
Duration : 31s 0ms
Bit rate : 3 721 Kbps
Width : 640 pixels
Height : 480 pixels
Display aspect ratio : 4:3
Frame rate : 15.000 fps
Color space : YUV
Chroma subsampling : 4:2:0
Bit depth : 8 bits
Bits/(Pixel*Frame) : 0.808
Stream size : 13.8 MiB (97%)

Audio
ID : 1
Format : PCM
Format settings, Endianness : Little
Format settings, Sign : Signed
Codec ID : 1
Codec ID/Hint : Microsoft
Duration : 31s 0ms
Bit rate mode : Constant
Bit rate : 128 Kbps
Channel(s) : 1 channel
Sampling rate : 8 000 Hz
Bit depth : 16 bits
Stream size : 484 KiB (3%)
Interleave, duration : 200 ms (3.00 video frames)
Interleave, preload duration : 200 ms

1280x720x15

Format : AVI
Format/Info : Audio Video Interleave
File size : 26.0 MiB следовательно 1 минута - 52 Мб
Duration : 31s 0ms
Overall bit rate : 7 040 Kbps

Video
ID : 0
Format : M-JPEG
Codec ID : MJPG
Duration : 31s 0ms
Bit rate : 6 908 Kbps
Width : 1 280 pixels
Height : 720 pixels
Display aspect ratio : 16:9
Frame rate : 12.000 fps
Color space : YUV
Chroma subsampling : 4:2:0
Bit depth : 8 bits
Bits/(Pixel*Frame) : 0.625
Stream size : 25.5 MiB (98%)

Audio
ID : 1
Format : PCM
Format settings, Endianness : Little
Format settings, Sign : Signed
Codec ID : 1
Codec ID/Hint : Microsoft
Duration : 31s 0ms
Bit rate mode : Constant
Bit rate : 128 Kbps
Channel(s) : 1 channel
Sampling rate : 8 000 Hz
Bit depth : 16 bits
Stream size : 484 KiB (2%)
Interleave, duration : 250 ms (3.00 video frames)
Interleave, preload duration : 250 ms

1280x720x30

Format : AVI
Format/Info : Audio Video Interleave
File size : 51.4 MiB следовательно 1 минута - 102 Мб
Duration : 31s 0ms
Overall bit rate : 13.9 Mbps

Video
ID : 0
Format : M-JPEG
Codec ID : MJPG
Duration : 31s 0ms
Bit rate : 13.8 Mbps
Width : 1 280 pixels
Height : 720 pixels
Display aspect ratio : 16:9
Frame rate : 24.000 fps
Color space : YUV
Chroma subsampling : 4:2:0
Bit depth : 8 bits
Bits/(Pixel*Frame) : 0.623
Stream size : 50.9 MiB (99%)

Audio
ID : 1
Format : PCM
Format settings, Endianness : Little
Format settings, Sign : Signed
Codec ID : 1
Codec ID/Hint : Microsoft
Duration : 31s 0ms
Bit rate mode : Constant
Bit rate : 128 Kbps
Channel(s) : 1 channel
Sampling rate : 8 000 Hz
Bit depth : 16 bits
Stream size : 484 KiB (1%)
Interleave, duration : 250 ms (6.00 video frames)
Interleave, preload duration : 250 ms

Как видим из данных на режиме HD уже не 30 кадров в секунду, а 24 в режиме 30 fps, и 12 в режиме 15 fps. образцы видео сегодня выложу...

Народ подскажите плиз какие аккумы брать, пока смотрю на такие только не знаю что разные цвета означают http://cgi.ebay.com/48-pcs-AAA-1800mAh-1-2-V-Ni-MH-Rechargeable-battery-Blu-/140540122955?pt=US_Batteries&hash=item20b8d8174b#ht_2786wt_905
 

G_A_V_S

Продвинутый
G_A_V_S
Регистрация
22 Окт 2010
Сообщения
435
Баллы
18
Местоположение
Краснодар
ну для камеры такие аккумы точно брать не стоит... тем более тут в лоте их 48 штук ))))) запаришься заряжать )) да и с продом наверно не получится договориться )))
 

Willik73

Крутой иБаер
Willik73
Регистрация
27 Окт 2010
Сообщения
768
Баллы
0
Местоположение
Volgograd
staran, выложите плиз на ютуб видео с улицы,днем, вечером и ночью,если не трудно.
 

staran

Новичок
Регистрация
12 Апр 2011
Сообщения
5
Баллы
0
Местоположение
Brest, By
Видео днем

 

Willik73

Крутой иБаер
Willik73
Регистрация
27 Окт 2010
Сообщения
768
Баллы
0
Местоположение
Volgograd
staran,класс! :) Ловите + в репу !
 

mаkros

Знаток
Регистрация
13 Дек 2009
Сообщения
1 759
Баллы
16
Местоположение
Челябинск
камера фуфло. плюс в репу :crazy:
 

g_tel123

Новичок
Регистрация
21 Фев 2011
Сообщения
1
Баллы
0
Местоположение
москва
А вечернего/ночного не будет ?
 

qroman

Крутой иБаер
qroman
Регистрация
12 Янв 2009
Сообщения
584
Баллы
0
Местоположение
Russian
девушка зачетная, видео качество отстой. на телефон с 3 мегапиксельной камерой и то лучше будет запись.

По сути и в этом камкодере не больше 3мегапикселей + отсутствие адекватной оптики.
 



Live